Categories
» » Peabo Bryson & Roberta Flack - Born To Love

Peabo Bryson & Roberta Flack - Born To Love Album

Peabo Bryson & Roberta Flack - Born To Love Album
Performer: Peabo Bryson & Roberta Flack
Genre: Soul / Pop
Title: Born To Love
MP3 album size: 1175 mb
FLAC album size: 2540 mb
Style: Soul, Ballad
Country: US
Released: 1989
Catalog number: CDP 7 91329 2
Label: Capitol Records

Tracklist


1Blame It On Me
2Can We Find Love Again
3Maybe
4Comin' Alive
5Heaven Above Me
6I Just Came Here To Dance
7Born To Love
8Tonight, I Celebrate My Love
9You're Looking Like Love To Me

Versions


CategoryArtistTitle (Format)LabelCategoryCountryYear
ST-12284Peabo Bryson & Roberta Flack Peabo Bryson & Roberta Flack - Born To Love ‎(LP, Album)Capitol RecordsST-12284US1983
BD 8027Peabo Bryson & Roberta Flack Peabo Bryson & Roberta Flack - Born To Love ‎(Cass, Album, Unofficial)BillboardBD 8027Indonesia1983
ST-50.050Peabo Bryson & Roberta Flack Peabo Bryson & Roberta Flack - Born To Love ‎(LP, Album)Capitol RecordsST-50.050Venezuela1983
1A 064-7122841, 1A 064 7122841, 064 7122841Peabo Bryson / Roberta Flack Peabo Bryson / Roberta Flack - Born To Love ‎(LP, Album)Capitol Records, Capitol Records, Capitol Records1A 064-7122841, 1A 064 7122841, 064 7122841Netherlands1983
ST-12284Peabo Bryson & Roberta Flack Peabo Bryson & Roberta Flack - Born To Love ‎(LP, Album)Capitol RecordsST-12284Singapore, Malaysia & Hong Kong1983

Notes


(p)1983
(c)1989Greg Phillinganes appears of Planet Records
Monalisa Young appears of Motown Records
Peter Christlieb appears of Bosco Records
Marcus Miller appears of Warner Bros Records, Inc.

A1, B3 Recorded at A&M Records Studio & Studio Sound
Mixed at Motown Hitsville
A2 Recorded at A&M Records Studio, Westlake Studios & Music Grinder
A3, B2, B4 Recorded at New Sound Labs, L.A. & Record Plant, N.Y.C.
B1 Recorded at A&M Studios, Westlake Studios & Music Grinder
B2 Recorded & Mixed at The New Sound Labs, L.A.
B5 Recorded & Mixed at The Record Plant, N.Y.

Barcodes


  • Matrix / Runout (Side B): ST2 12284 -2
  • Matrix / Runout (Side A): ST1 12284
  • Other: MAXICUT
  • Other: TP (Etched)
  • Barcode: 0 7777-91329-2 8
  • Other: DIDX 4091

Video

Gnng
foobar2000 1.4.4 / Dynamic Range Meter 1.1.1
log date: 2019-12-05 21:17:17

--------------------------------------------------------------------------------
Analyzed: Peabo Bryson & Roberta Flack / Born To Love [US 1983/1989 CD]
--------------------------------------------------------------------------------

DR Peak RMS Duration Track
--------------------------------------------------------------------------------
DR12 -0.65 dB -17.07 dB 3:31 01-Tonight, I Celebrate My Love
DR13 -1.52 dB -17.66 dB 4:15 02-Blame It On Me
DR14 0.00 dB -16.64 dB 4:37 03-Heaven Above Me
DR14 0.00 dB -16.89 dB 4:29 04-Born To Love
DR12 -1.41 dB -17.36 dB 3:22 05-Maybe
DR13 -1.32 dB -17.94 dB 4:04 06-I Just Came Here To Dance
DR14 -0.22 dB -15.90 dB 3:37 07-Comin' Alive
DR14 -1.50 dB -18.56 dB 4:03 08-You're Looking Like A Love To Me
DR13 -1.58 dB -17.86 dB 4:32 09-Can We Find Love Again
--------------------------------------------------------------------------------

Number of tracks: 9
Official DR value: DR13

Samplerate: 44100 Hz
Channels: 2
Bits per sample: 16
Bitrate: 827 kbps
Codec: ALAC
================================================================================
Discussed
Duster - StratosphereTalk Talk - Laughing StockVerve - A Storm In HeavenHostom - HOSTOM - 001Various - Techno! The New Dance Sound Of DetroitNirvana - MTV Unplugged In New YorkMazzy Star - Seasons Of Your DayVarious - Chicago ServiceSneaker Pimps - Becoming XAutechre - EPS 1991 – 2002Tonebox - NocturnKilling Joke - Killing JokeDepeche Mode - VIOLATORThe Mole People - Break Night / Ocean¡redream! - 11Phil Collins - Face ValueZero 7 - Simple ThingsBurzum - Hvis Lyset Tar OssMichael O'Shea - Michael O'SheaBeastie Boys - Licensed To IllPearl Jam - TenThe Wreckin' Cru' - SurgeryEvan Marc + Steve Hillage - Dreamtime SubmersibleThem Crooked Vultures - Them Crooked VulturesRobin Wants Revenge - Robin Wants RevengeEon - SpiceDan Shake - 3AM Jazz ClubS.O.N.S - Shibuya One Night Stand EPRoy Of The Ravers - 2 Late 4 LoveAjukaja & Andrevski - Rare Birds EPMiltiades - Epk.xStretchBoys - 5 - 4 Say FreezeSoda Stereo - Comfort y Música Para VolarAndrás Presents... H.O.D. - House Of DadPsychick Warriors Ov Gaia - 1989DJ Metatron - This Is NotDJ Gwange - New Creation / Vinyl ParadiseCirca Survive - Juturna: Deluxe Ten Year EditionPaul Weller - True MeaningsErykah Badu - Mama's GunNirvana - NevermindCoheed And Cambria - The Unheavenly CreaturesDepeche Mode - A Broken Frame | The 12" SinglesThe Beatles - Beatles VIDeath - ...For The Whole World To SeeAhzz - New York's Movin'ASC - Time Heals AllАспид - КровоизлияниеThe Mars Volta - The Bedlam In GoliathArthur Russell - World Of EchoBad Religion - Bad ReligionSu Tissue - Salon De MusiqueMuse - Simulation TheoryWebster Station - Are You For RealSwirlies - Blonder Tongue Audio BatonGhost - PrequelleLuke Slater's 7th Plain - The 4 Cornered RoomNick Cave & The Bad Seeds - Push The Sky AwayVarious - PCP Classics Vol.1Small Faces - There Are But Four Small FacesJimmy Eat World - Bleed AmericanMetallica - Garage Inc.Various - Strange Pleasures EP - Alternative Highlights 01Dead Can Dance - DionysusHead High - It's A Love Thing (Piano Invasion)Duster - Capsule Losing ContactThe Stone Roses - I Am The ResurrectionMelanie Martinez - Cry BabyJames Vincent McMorrow - CavalierGas - KönigsforstPeshay & The Truper - Untitled공중도둑 = Mid-Air Thief - 무너지기 = CrumblingPopol Vuh - In Den Gärten PharaosStars Of The Lid - Stars Of The Lid And Their Refinement Of The DeclineDeftones - GoreTestament - The RitualFelipe Venegas Y Francisco Allendes - LloviznaQueenadreena - The Butcher And The ButterflyCan - Future DaysMumford & Sons - Sigh No MoreSully - FlockSL2 - Way In My Brain (Remix)David Gilmour - On An IslandCloud Cult - The SeekerGrizzly Bear - ShieldsVarious - Revival TraxxM83 - Hurry Up, We're Dreaming.The Roots - Things Fall ApartIntrigue - I Like ItThaneco - Psychic ImagesVoid - Orcana / No StoppinDaze - LipsIceage - Plowing Into The Field Of LoveEfdemin - Decay Versions Pt. 2Various - The Fifth ColumnDan Auerbach - Waiting On A SongQueen - Bohemian RhapsodyOFF! - First Four EPsPeter Gabriel - UpRowland S. Howard - Teenage Snuff Film